<?xml version="1.0" standalone="no"?>
<!DOCTYPE svg PUBLIC "-//W3C//DTD SVG 1.1//EN" "http://www.w3.org/Graphics/SVG/1.1/DTD/svg11.dtd" >
<svg xmlns="http://www.w3.org/2000/svg">
<defs>
  <font id="iconfont" horiz-adv-x="1500">
    <font-face font-family="iconfont"
      units-per-em="1000" ascent="1000"
      descent="0" />
    <missing-glyph horiz-adv-x="0" />
    <glyph glyph-name="ico-arrow-back"
      unicode="&#xF101;"
      horiz-adv-x="1000" d="M210.9375 453.125L567.1875 96.875L500 31.25L31.25 500L500 968.75L567.1875 903.125L210.9375 546.875H968.75V453.125z" />
    <glyph glyph-name="ico-arrow-back-1"
      unicode="&#x69;&#x63;&#x6F;&#x2D;&#x61;&#x72;&#x72;&#x6F;&#x77;&#x2D;&#x62;&#x61;&#x63;&#x6B;"
      horiz-adv-x="1000" d="M210.9375 453.125L567.1875 96.875L500 31.25L31.25 500L500 968.75L567.1875 903.125L210.9375 546.875H968.75V453.125z" />
    <glyph glyph-name="ico-arrow-button"
      unicode="&#xF102;"
      horiz-adv-x="1000" d="M100.3636363636364 0.5909090909091L34.0909090909091 66.909090909091L804.9090909090908 839.6363636363636H96.5909090909091V934.3181818181818H967.8181818181818V63.090909090909H873.0909090909091V771.4545454545455z" />
    <glyph glyph-name="ico-arrow-button-1"
      unicode="&#x69;&#x63;&#x6F;&#x2D;&#x61;&#x72;&#x72;&#x6F;&#x77;&#x2D;&#x62;&#x75;&#x74;&#x74;&#x6F;&#x6E;"
      horiz-adv-x="1000" d="M100.3636363636364 0.5909090909091L34.0909090909091 66.909090909091L804.9090909090908 839.6363636363636H96.5909090909091V934.3181818181818H967.8181818181818V63.090909090909H873.0909090909091V771.4545454545455z" />
    <glyph glyph-name="ico-arrow_outward"
      unicode="&#xF103;"
      horiz-adv-x="1000" d="M63.8888888888889 6.9444444444445L13.8888888888889 56.9444444444443L868.0555555555555 913.2222222222222H76.3888888888889V986.111111111111H993.0555555555557V69.4444444444445H920.1666666666666V859z" />
    <glyph glyph-name="ico-arrow_outward-1"
      unicode="&#x69;&#x63;&#x6F;&#x2D;&#x61;&#x72;&#x72;&#x6F;&#x77;&#x5F;&#x6F;&#x75;&#x74;&#x77;&#x61;&#x72;&#x64;"
      horiz-adv-x="1000" d="M63.8888888888889 6.9444444444445L13.8888888888889 56.9444444444443L868.0555555555555 913.2222222222222H76.3888888888889V986.111111111111H993.0555555555557V69.4444444444445H920.1666666666666V859z" />
    <glyph glyph-name="ico-calendar"
      unicode="&#xF104;"
      horiz-adv-x="857.1428571428571" d="M383.3571428571429 383.3571428571429V473.7857142857142H473.7857142857143V383.3571428571429zM197.6428571428572 383.3571428571429V473.7857142857142H288.0714285714286V383.3571428571429zM569.0714285714287 383.3571428571429V473.7857142857142H659.5000000000001V383.3571428571429zM383.357142857143 211.9285714285715V302.3571428571429H473.7857142857144V211.9285714285715zM197.6428571428572 211.9285714285715V302.3571428571429H288.0714285714287V211.9285714285715zM569.0714285714287 211.9285714285715V302.3571428571429H659.5000000000001V211.9285714285715zM19.0714285714286 33.3571428571429V852.3571428571429H200V966.6428571428572H292.8571428571429V852.3571428571429H564.2857142857142V966.6428571428572H657.1428571428571V852.3571428571429H838.0714285714286V33.3571428571429zM117.8571428571429 132.1428571428571H739.2857142857143V557.1428571428571H117.8571428571429z" />
    <glyph glyph-name="ico-calendar-1"
      unicode="&#x69;&#x63;&#x6F;&#x2D;&#x63;&#x61;&#x6C;&#x65;&#x6E;&#x64;&#x61;&#x72;"
      horiz-adv-x="857.1428571428571" d="M383.3571428571429 383.3571428571429V473.7857142857142H473.7857142857143V383.3571428571429zM197.6428571428572 383.3571428571429V473.7857142857142H288.0714285714286V383.3571428571429zM569.0714285714287 383.3571428571429V473.7857142857142H659.5000000000001V383.3571428571429zM383.357142857143 211.9285714285715V302.3571428571429H473.7857142857144V211.9285714285715zM197.6428571428572 211.9285714285715V302.3571428571429H288.0714285714287V211.9285714285715zM569.0714285714287 211.9285714285715V302.3571428571429H659.5000000000001V211.9285714285715zM19.0714285714286 33.3571428571429V852.3571428571429H200V966.6428571428572H292.8571428571429V852.3571428571429H564.2857142857142V966.6428571428572H657.1428571428571V852.3571428571429H838.0714285714286V33.3571428571429zM117.8571428571429 132.1428571428571H739.2857142857143V557.1428571428571H117.8571428571429z" />
    <glyph glyph-name="ico-chevron-next"
      unicode="&#xF105;"
      horiz-adv-x="1000" d="M349.7 988.2L809.3 528C817.1999999999999 520.1 821.0999999999999 510.8 821.0999999999999 500.1S817.1999999999999 480 809.3 472.2L349.7 11.8C341.8 3.9 332.4 0 321.4 0S301 3.9 293.2 11.8L190.8 114.8C182.9 122.6999999999999 179 132 179 142.6999999999999S182.9 162.8 190.8 170.5999999999999L520.3 500L190.9 829.5C183 837.4 179.1 846.7 179.1 857.4C179.1 868.2 183 877.5 190.9 885.3L293.3 988.3C301.2 996.2 310.6 1000.1 321.5 1000.1S341.8 996.2 349.7 988.2" />
    <glyph glyph-name="ico-chevron-next-1"
      unicode="&#x69;&#x63;&#x6F;&#x2D;&#x63;&#x68;&#x65;&#x76;&#x72;&#x6F;&#x6E;&#x2D;&#x6E;&#x65;&#x78;&#x74;"
      horiz-adv-x="1000" d="M349.7 988.2L809.3 528C817.1999999999999 520.1 821.0999999999999 510.8 821.0999999999999 500.1S817.1999999999999 480 809.3 472.2L349.7 11.8C341.8 3.9 332.4 0 321.4 0S301 3.9 293.2 11.8L190.8 114.8C182.9 122.6999999999999 179 132 179 142.6999999999999S182.9 162.8 190.8 170.5999999999999L520.3 500L190.9 829.5C183 837.4 179.1 846.7 179.1 857.4C179.1 868.2 183 877.5 190.9 885.3L293.3 988.3C301.2 996.2 310.6 1000.1 321.5 1000.1S341.8 996.2 349.7 988.2" />
    <glyph glyph-name="ico-chevron-prev"
      unicode="&#xF106;"
      horiz-adv-x="1000" d="M650.3 988.3C658.1999999999999 996.2 667.5999999999999 1000.1 678.5 1000.1S698.8 996.2 706.7 988.3L809.1 885.3C817 877.5 820.9 868.2 820.9 857.4C820.9 846.7 817 837.4 809.1 829.5L479.8 500L809.3 170.6C817.1999999999999 162.8000000000001 821.0999999999999 153.4 821.0999999999999 142.7000000000001S817.1999999999999 122.7000000000001 809.3 114.8000000000001L706.9 11.8000000000001C699.1 3.9000000000001 689.6999999999999 1e-13 678.6999999999999 1e-13S658.3 3.9000000000001 650.4 11.8000000000001L190.8 472.1C182.9 479.9 179 489.3 179 500S182.9 520 190.8 527.9z" />
    <glyph glyph-name="ico-chevron-prev-1"
      unicode="&#x69;&#x63;&#x6F;&#x2D;&#x63;&#x68;&#x65;&#x76;&#x72;&#x6F;&#x6E;&#x2D;&#x70;&#x72;&#x65;&#x76;"
      horiz-adv-x="1000" d="M650.3 988.3C658.1999999999999 996.2 667.5999999999999 1000.1 678.5 1000.1S698.8 996.2 706.7 988.3L809.1 885.3C817 877.5 820.9 868.2 820.9 857.4C820.9 846.7 817 837.4 809.1 829.5L479.8 500L809.3 170.6C817.1999999999999 162.8000000000001 821.0999999999999 153.4 821.0999999999999 142.7000000000001S817.1999999999999 122.7000000000001 809.3 114.8000000000001L706.9 11.8000000000001C699.1 3.9000000000001 689.6999999999999 1e-13 678.6999999999999 1e-13S658.3 3.9000000000001 650.4 11.8000000000001L190.8 472.1C182.9 479.9 179 489.3 179 500S182.9 520 190.8 527.9z" />
    <glyph glyph-name="ico-close"
      unicode="&#xF107;"
      horiz-adv-x="1000" d="M75.9444444444444 16.6666666666666L16.6666666666667 75.9444444444445L440.7222222222223 500L16.6666666666667 924.0555555555557L75.9444444444444 983.3333333333334L500 559.2777777777778L924.0555555555557 983.3333333333334L983.3333333333334 924.0555555555557L559.2777777777778 500L983.3333333333334 75.9444444444445L924.0555555555557 16.6666666666666L500 440.7222222222222z" />
    <glyph glyph-name="ico-close-1"
      unicode="&#x69;&#x63;&#x6F;&#x2D;&#x63;&#x6C;&#x6F;&#x73;&#x65;"
      horiz-adv-x="1000" d="M75.9444444444444 16.6666666666666L16.6666666666667 75.9444444444445L440.7222222222223 500L16.6666666666667 924.0555555555557L75.9444444444444 983.3333333333334L500 559.2777777777778L924.0555555555557 983.3333333333334L983.3333333333334 924.0555555555557L559.2777777777778 500L983.3333333333334 75.9444444444445L924.0555555555557 16.6666666666666L500 440.7222222222222z" />
    <glyph glyph-name="ico-email"
      unicode="&#xF108;"
      horiz-adv-x="1000" d="M12.8076923076923 0V769.2307692307692H987.1923076923076V0zM500 376.9230769230769L70.5 660.2692307692307V57.6923076923076H929.4999999999998V660.2692307692307zM500 438.4615384615385L917.9615384615385 711.5384615384614H83.3461538461539zM70.5 660.2692307692307V711.5384615384614zV57.6923076923076z" />
    <glyph glyph-name="ico-email-1"
      unicode="&#x69;&#x63;&#x6F;&#x2D;&#x65;&#x6D;&#x61;&#x69;&#x6C;"
      horiz-adv-x="1000" d="M12.8076923076923 0V769.2307692307692H987.1923076923076V0zM500 376.9230769230769L70.5 660.2692307692307V57.6923076923076H929.4999999999998V660.2692307692307zM500 438.4615384615385L917.9615384615385 711.5384615384614H83.3461538461539zM70.5 660.2692307692307V711.5384615384614zV57.6923076923076z" />
    <glyph glyph-name="ico-in"
      unicode="&#xF109;"
      horiz-adv-x="1000" d="M224 0H16.65V668.3H224zM120.35 759.35A120.25 120.25 0 0 0 0 879.7A120.25 120.25 0 1 0 240.4 879.7A120.35 120.35 0 0 0 120.35 759.3499999999999M1000 0H792.9V324.85C792.9 402.25 791.5500000000001 502.05 685.1500000000001 502.05C577.35 502.05 561 417.5500000000001 561 330.3V0H354.1500000000001V668.3H552.8000000000001V577H555.5500000000001C583.0500000000001 629.5 650.75 685 751.45 685C961.2500000000002 685 1000 546.6 1000 366.7z" />
    <glyph glyph-name="ico-in-1"
      unicode="&#x69;&#x63;&#x6F;&#x2D;&#x69;&#x6E;"
      horiz-adv-x="1000" d="M224 0H16.65V668.3H224zM120.35 759.35A120.25 120.25 0 0 0 0 879.7A120.25 120.25 0 1 0 240.4 879.7A120.35 120.35 0 0 0 120.35 759.3499999999999M1000 0H792.9V324.85C792.9 402.25 791.5500000000001 502.05 685.1500000000001 502.05C577.35 502.05 561 417.5500000000001 561 330.3V0H354.1500000000001V668.3H552.8000000000001V577H555.5500000000001C583.0500000000001 629.5 650.75 685 751.45 685C961.2500000000002 685 1000 546.6 1000 366.7z" />
    <glyph glyph-name="ico-location"
      unicode="&#xF10A;"
      horiz-adv-x="857.1428571428571" d="M428.5714285714286 497.6428571428571Q465.4285714285714 497.6428571428571 490.5 522.6428571428571Q516.6428571428571 548.7857142857142 516.6428571428571 585.7142857142857A82.1428571428572 82.1428571428572 0 0 1 490.5 647.6428571428571A82.1428571428572 82.1428571428572 0 0 1 428.5714285714286 673.7857142857142Q391.6428571428571 673.7857142857142 365.5 647.6428571428571Q340.5000000000001 622.5714285714286 340.5000000000001 585.7142857142858Q340.5000000000001 548.7857142857142 365.5 522.6428571428571Q391.6428571428571 497.6428571428572 428.5714285714286 497.6428571428572M428.5714285714286 33.3571428571429Q236.9285714285715 191.6428571428571 141.6428571428571 326.2142857142857Q47.6428571428571 460.7142857142857 47.6428571428571 583.3571428571429Q47.6428571428571 746.4285714285714 155.9285714285714 855.9285714285713Q265.5714285714286 966.6428571428572 427.3571428571429 966.6428571428572Q590.5 966.6428571428572 700.0000000000001 855.9285714285713Q809.5 746.4285714285714 809.5 583.3571428571429Q809.5 460.7142857142857 715.5 326.2142857142857Q621.4285714285714 192.8571428571428 428.5714285714286 33.3571428571429" />
    <glyph glyph-name="ico-location-1"
      unicode="&#x69;&#x63;&#x6F;&#x2D;&#x6C;&#x6F;&#x63;&#x61;&#x74;&#x69;&#x6F;&#x6E;"
      horiz-adv-x="857.1428571428571" d="M428.5714285714286 497.6428571428571Q465.4285714285714 497.6428571428571 490.5 522.6428571428571Q516.6428571428571 548.7857142857142 516.6428571428571 585.7142857142857A82.1428571428572 82.1428571428572 0 0 1 490.5 647.6428571428571A82.1428571428572 82.1428571428572 0 0 1 428.5714285714286 673.7857142857142Q391.6428571428571 673.7857142857142 365.5 647.6428571428571Q340.5000000000001 622.5714285714286 340.5000000000001 585.7142857142858Q340.5000000000001 548.7857142857142 365.5 522.6428571428571Q391.6428571428571 497.6428571428572 428.5714285714286 497.6428571428572M428.5714285714286 33.3571428571429Q236.9285714285715 191.6428571428571 141.6428571428571 326.2142857142857Q47.6428571428571 460.7142857142857 47.6428571428571 583.3571428571429Q47.6428571428571 746.4285714285714 155.9285714285714 855.9285714285713Q265.5714285714286 966.6428571428572 427.3571428571429 966.6428571428572Q590.5 966.6428571428572 700.0000000000001 855.9285714285713Q809.5 746.4285714285714 809.5 583.3571428571429Q809.5 460.7142857142857 715.5 326.2142857142857Q621.4285714285714 192.8571428571428 428.5714285714286 33.3571428571429" />
    <glyph glyph-name="ico-menu"
      unicode="&#xF10B;"
      horiz-adv-x="1000" d="M27.7916666666667 20.8333333333334V83.3333333333334H972.2083333333334V20.8333333333334zM27.7916666666667 301.375V365.2916666666667H972.2083333333334V301.375zM27.7916666666667 583.3333333333333V645.8333333333333H972.2083333333334V583.3333333333333z" />
    <glyph glyph-name="ico-menu-1"
      unicode="&#x69;&#x63;&#x6F;&#x2D;&#x6D;&#x65;&#x6E;&#x75;"
      horiz-adv-x="1000" d="M27.7916666666667 20.8333333333334V83.3333333333334H972.2083333333334V20.8333333333334zM27.7916666666667 301.375V365.2916666666667H972.2083333333334V301.375zM27.7916666666667 583.3333333333333V645.8333333333333H972.2083333333334V583.3333333333333z" />
    <glyph glyph-name="ico-play-arrow"
      unicode="&#xF10C;"
      horiz-adv-x="791.6666666666666" d="M12 7.7916666666667V998.4583333333334L790.125 503.125z" />
    <glyph glyph-name="ico-play-arrow-1"
      unicode="&#x69;&#x63;&#x6F;&#x2D;&#x70;&#x6C;&#x61;&#x79;&#x2D;&#x61;&#x72;&#x72;&#x6F;&#x77;"
      horiz-adv-x="791.6666666666666" d="M12 7.7916666666667V998.4583333333334L790.125 503.125z" />
    <glyph glyph-name="ico-return"
      unicode="&#xF10D;"
      horiz-adv-x="1000" d="M1000 780H912V544H168L394.0000000000001 770L332 832L0 500L332 168L394.0000000000001 230L168 456H1000z" />
    <glyph glyph-name="ico-return-1"
      unicode="&#x69;&#x63;&#x6F;&#x2D;&#x72;&#x65;&#x74;&#x75;&#x72;&#x6E;"
      horiz-adv-x="1000" d="M1000 780H912V544H168L394.0000000000001 770L332 832L0 500L332 168L394.0000000000001 230L168 456H1000z" />
    <glyph glyph-name="ico-schedule"
      unicode="&#xF10E;"
      horiz-adv-x="1000" d="M654.7857142857143 296.4285714285715L722.6428571428571 363.0714285714286L547.6428571428571 538.0714285714287V784.5H452.3571428571429V498.7857142857143zM500 33.3571428571429Q403.5714285714286 33.3571428571429 317.8571428571429 69.0714285714286A492.8571428571429 492.8571428571429 0 0 0 169.0714285714286 169.0714285714286A492.8571428571429 492.8571428571429 0 0 0 69.0714285714286 317.8571428571429Q33.3571428571429 403.5714285714286 33.3571428571429 500.0000000000001Q33.3571428571429 597.5714285714287 69.0714285714286 682.1428571428571Q105.9285714285715 767.8571428571429 169.0714285714286 830.9285714285716A471.4285714285714 471.4285714285714 0 0 0 317.8571428571429 929.7857142857144A457.1428571428572 457.1428571428572 0 0 0 500 966.6428571428572Q597.5714285714286 966.6428571428572 682.1428571428572 929.7857142857142Q767.8571428571429 892.8571428571429 829.7857142857143 829.7857142857142A457.1428571428572 457.1428571428572 0 0 0 929.7857142857144 682.1428571428571Q966.6428571428572 597.5714285714286 966.6428571428572 500Q966.6428571428572 403.5714285714286 929.7857142857144 317.8571428571428A471.4285714285714 471.4285714285714 0 0 0 830.9285714285716 169.0714285714285A471.4285714285714 471.4285714285714 0 0 0 682.1428571428572 69.0714285714284Q597.5714285714287 33.3571428571428 500.0000000000001 33.3571428571428" />
    <glyph glyph-name="ico-schedule-1"
      unicode="&#x69;&#x63;&#x6F;&#x2D;&#x73;&#x63;&#x68;&#x65;&#x64;&#x75;&#x6C;&#x65;"
      horiz-adv-x="1000" d="M654.7857142857143 296.4285714285715L722.6428571428571 363.0714285714286L547.6428571428571 538.0714285714287V784.5H452.3571428571429V498.7857142857143zM500 33.3571428571429Q403.5714285714286 33.3571428571429 317.8571428571429 69.0714285714286A492.8571428571429 492.8571428571429 0 0 0 169.0714285714286 169.0714285714286A492.8571428571429 492.8571428571429 0 0 0 69.0714285714286 317.8571428571429Q33.3571428571429 403.5714285714286 33.3571428571429 500.0000000000001Q33.3571428571429 597.5714285714287 69.0714285714286 682.1428571428571Q105.9285714285715 767.8571428571429 169.0714285714286 830.9285714285716A471.4285714285714 471.4285714285714 0 0 0 317.8571428571429 929.7857142857144A457.1428571428572 457.1428571428572 0 0 0 500 966.6428571428572Q597.5714285714286 966.6428571428572 682.1428571428572 929.7857142857142Q767.8571428571429 892.8571428571429 829.7857142857143 829.7857142857142A457.1428571428572 457.1428571428572 0 0 0 929.7857142857144 682.1428571428571Q966.6428571428572 597.5714285714286 966.6428571428572 500Q966.6428571428572 403.5714285714286 929.7857142857144 317.8571428571428A471.4285714285714 471.4285714285714 0 0 0 830.9285714285716 169.0714285714285A471.4285714285714 471.4285714285714 0 0 0 682.1428571428572 69.0714285714284Q597.5714285714287 33.3571428571428 500.0000000000001 33.3571428571428" />
  </font>
</defs>
</svg>
